#TITLE:I WANT YOUR LOVE;
#SUBTITLE:;
#ARTIST:Atomic Kitten;
#TITLETRANSLIT:;
#SUBTITLETRANSLIT:;
#ARTISTTRANSLIT:;
#CREDIT:;
#BANNER:I Want Love-banner.png;
#BACKGROUND:I Want Love-bg.png;
#LYRICSPATH:;
#CDTITLE:;
#MUSIC:I want your love.mp3;
#MUSICLENGTH:99.840;
#OFFSET:-0.040;
#SAMPLESTART:74.145;
#SAMPLELENGTH:12.000;
#SELECTABLE:YES;
#BPMS:0.000=132.000;
#STOPS:;
#BGCHANGES:;
#FIRSTBEAT:4.000;

#LASTBEAT:216.000;

#SONGFILENAME:Songs/ERICth MIX 2nd Style/I Want Your Love/iwantlove.sm;

#HASMUSIC:1;

#HASBANNER:1;


//---------------dance-single - MANIAC----------------
#NOTES:
     dance-single:
     MANIAC:
     hard:
     7:
     0.408,0.458,0.100,0.070,0.000,268.000,10.000,7.000,0.000,0.000:

0000
0000
0000
0000
,
0220
0000
0000
0000
0000
0330
0000
0000
,
1000
0000
0000
0000
,
0001
1000
0010
0000
,
0100
0000
1000
0001
1000
0000
0000
0000
,
0202
0000
0000
0000
0000
0303
0000
0000
,
0001
0000
1000
0001
0000
0000
0100
1000
,
0010
1000
0100
0000
1000
0100
1000
0000
,
0001
1000
0100
0010
0100
0000
0000
0000
,
1001
0000
0100
1000
0010
1000
0000
0001
,
0000
0010
0100
1000
0001
0000
0000
0000
,
0010
1000
0100
0010
0001
1000
0000
0001
,
0000
1000
0100
0010
0000
0001
0000
0000
,
1000
0100
0001
0100
1000
0100
0000
0010
,
1000
0100
1000
0010
0001
0000
0000
0010
,
0000
1000
0100
1000
0001
1000
0000
0010
,
0000
0100
1000
0001
0000
0100
0000
0000
,
1000
0000
0001
0000
1000
0100
1000
0000
,
0010
0000
1000
0000
0001
1000
0100
0000
,
0001
0000
0100
0000
0001
0100
0001
0000
,
0101
0000
1000
0100
1000
0200
1300
0000
,
1001
0000
0100
1000
0001
1000
0000
0010
,
0000
0000
0010
1000
0000
0000
0100
1000
,
0001
0010
0001
1000
0100
0010
0100
0000
,
0001
1000
0010
0100
0010
0000
1001
0000
,
0010
0000
0000
1000
0100
0001
0000
0100
,
0000
0000
1000
0010
0000
0000
1000
0100
,
0001
0100
0010
0100
0010
0100
0010
0000
,
0010
1000
0001
1000
0100
0000
0000
0000
,
1000
0001
1000
0100
0010
0100
0000
0001
,
0000
0010
0001
0100
0001
0000
0000
0010
,
0001
1000
0100
0010
0001
1000
0000
0001
,
0000
1000
0010
0100
0000
0001
0000
0000
,
0010
1000
0100
0001
0100
0001
0000
0010
,
0000
1000
0010
1000
0001
0000
0101
0000
,
0010
0001
1000
0100
0010
0001
0000
0001
,
0000
1000
0010
0100
0000
0001
0000
0000
,
1000
0100
0010
1000
,
0100
0000
1000
0100
1000
0010
1000
0000
,
0001
0010
0001
0000
0010
1000
0010
0000
,
0001
1000
0001
1000
1001
0000
1001
0000
,
1000
0100
0010
0100
1000
0001
0010
0001
,
0100
0001
1000
0001
0000
0000
0010
1000
,
0100
0001
0100
1000
0010
1000
0010
0000
,
1000
0010
0001
0010
1000
0010
0001
0000
,
0001
0000
0000
0010
1000
0100
0000
0010
,
0000
0000
0001
1000
0000
0000
0100
0010
,
0001
1000
0100
0010
0001
1000
0010
0100
,
0001
1000
0010
0100
0001
0000
0000
0000
,
1000
0000
0001
0000
,
1000
0100
0010
0001
1000
0000
0000
0000
,
0001
0000
0010
0000
,
0100
1000
0001
1000
0100
0000
0000
0000
,
2002
0000
0000
3003;

//---------------dance-single - ANOTHER----------------
#NOTES:
     dance-single:
     ANOTHER:
     medium:
     4:
     0.335,0.352,0.120,0.150,0.000,207.000,12.000,15.000,0.000,0.000:

0000
0000
0000
0000
,
0000
0000
0000
0000
,
0020
0000
0000
0000
,
1030
0000
0100
0000
,
1000
0100
0010
0001
,
0002
0000
0000
0000
,
2000
0000
0000
3003
,
1001
0100
1000
0010
,
1000
0100
1000
0100
1000
0000
0000
0000
,
0001
1000
0100
1000
0010
1000
0000
0000
,
0001
1000
0100
1000
0100
0000
0000
0000
,
0001
1000
0010
0100
0010
0010
0000
0001
,
0000
1000
0100
0010
0000
0001
0000
0000
,
0100
1000
0010
1000
0100
0000
0000
0001
,
0000
1000
0100
1000
0010
0000
0000
0001
,
0000
1000
0001
1000
0001
1000
0000
0100
,
0000
0010
0010
0010
0000
0010
0000
0000
,
1000
0000
0001
0000
,
1000
0000
0100
0000
,
0010
0000
0001
0000
,
1000
0100
0001
0100
,
1000
0100
1000
0010
,
1000
0001
0100
0010
,
1000
0001
0100
0001
1000
0001
0100
0010
,
1000
0010
1000
0010
1000
0000
1001
0000
,
1000
0100
0010
0000
0100
0000
0100
0000
,
0010
0100
0010
0000
0001
0000
0001
0000
,
0010
0100
0001
0000
0100
0000
1000
0000
,
0002
0000
0000
0000
,
1003
0100
0010
0000
,
0001
1000
0010
0000
,
0001
1000
0100
0000
0000
0000
0001
0000
,
1001
0000
1001
1001
,
1000
0010
0100
0000
0001
0010
0100
0000
,
1000
0010
0100
0000
0001
1000
0001
0000
,
0100
1000
0010
1000
0100
1000
0000
1000
,
0000
0001
1000
0001
0000
0100
0000
0010
,
1000
0100
1000
0100
,
1000
0100
1000
0100
,
0020
1000
1000
1000
,
1000
0000
1000
0030
1010
0000
1010
0000
,
0010
0000
1000
0000
0100
0010
0001
0010
,
0001
0000
0001
0100
0000
0000
0100
0001
,
1000
0000
0100
0000
0001
0000
0100
0010
,
0100
0010
1000
0100
0010
0000
0001
0000
,
0001
0000
0100
0000
0001
1000
0000
0010
,
0000
0000
0100
1000
0000
0000
0001
1000
,
0100
0000
0010
0000
0001
1000
0001
0000
,
0100
0010
0100
0010
,
0220
0000
0000
0330
,
2020
0000
0000
0000
0000
0000
0000
3030
,
0202
0000
0000
0000
0000
0000
0000
0303
,
0220
0000
0000
0000
0000
0000
0000
0330
,
2002
0000
0000
0000
,
3003
0000
0000
0000;

//---------------dance-single - BASIC----------------
#NOTES:
     dance-single:
     BASIC:
     easy:
     3:
     0.215,0.265,0.170,0.100,0.000,123.000,17.000,10.000,0.000,0.000:

0000
0000
0000
0000
,
0110
0000
0000
0001
,
0100
0000
0000
1000
,
0100
0100
0010
0010
,
0100
0100
0010
0010
,
0002
0000
0000
0000
,
2003
0000
0000
0000
,
3010
0010
0100
0100
,
1001
0000
1001
0000
,
0001
1000
0001
0000
,
0010
0100
0100
0000
,
0010
0100
0100
0000
,
0001
0000
0000
1000
,
0010
0010
0010
0000
,
0100
0100
0100
0000
,
1000
1000
1000
1000
,
0001
0001
0001
0001
,
1001
0000
0000
0000
,
1001
0000
0000
0000
,
1001
0000
0000
0000
,
2000
0000
0002
3003
,
1001
1000
0100
0010
,
0100
0000
0010
0000
,
0110
0100
0001
1000
,
0010
1000
0010
0001
,
0100
0000
0100
0000
,
0010
0000
0010
0000
,
2000
0010
0001
0010
,
0100
0010
3100
1010
,
0100
0000
0100
0000
,
0010
0000
0010
0000
,
0001
0000
0001
0000
,
1000
0000
1000
0000
,
0100
0000
0010
0000
,
0001
0000
1000
0000
,
1010
0000
0101
0000
,
0001
0100
1000
0001
,
0020
0000
0000
0030
,
2000
0000
0000
3000
,
0200
0000
0000
0300
,
2000
0000
0000
3000
,
0110
0110
0010
1000
,
0100
0000
0000
0000
,
0110
0110
0010
0001
,
0100
0000
0000
1001
,
0010
0100
0010
0000
,
0100
0010
0100
0000
,
0001
1000
0001
0000
,
1000
0001
1000
0000
,
0020
0000
0000
0000
,
0000
0000
0000
0000
,
0000
0000
0000
0000
,
0000
0000
0000
0030
,
0011
0000
0000
0000;
